Главная Торренты / Файлы Топ раздачи Персоны кино Форум Войти Восстановить Пароль Регистрация Служба техподдержки 

Привет, Гость

Войти на сайт
Регистрация
Восстановить Пароль

Спасибо Вам
Мы благодарны этим людям в поддержке сайта:
Vladimir72s, zawer12, CUBEPKO
Попади и ты в этот блок, поставь оценку 5 и получи 500 MB к отдаче:
Войти на сайт сейчас.

Поделитесь в социальных сетях


:: Детали раздачи

Modern Talking Blue System - Das Nummer 1 Album! [2010, Euro-Disco, FLAC]

Скачать Скачать .torrent файл (основная ссылка для скачивания файла)
Смотреть / Слушать онлайн просмотр (ссылка для просмотра файла через плагин 'Torrent Stream')
Magnet-ссылка (альтернативная ссылка для скачивания файла)
Теги / Метки euro, disco, 2010
Описание
Формат: FLAC, (image + .cue), lossless
Год выпуска: 2010
Страна: Germany
Жанр: Euro-Disco
Продолжительность: 01:13:43
Описание:


Tracklist:
---------------------------
01. Modern Talking - You're My Heart, You're My Soul (3:51)
02. Modern Talking - You Can Win If You Want (Special Single Remix) (3:43)
03. Modern Talking - Cheri Cheri Lady (3:45)
04. Blue System - Sorry Little Sarah (3:30)
05. Blue System - My Bed Is Too Big (3:16)
06. Modern Talking - Brother Louie (3:39)
07. Modern Talking - Atlantis Is Calling (S.O.S. For Love) (3:48)
08. Modern Talking - Geronimo's Cadillac (3:17)
09. Blue System - Under My Skin (Radio Version) (3:33)
10. Blue System - Silent Water (3:26)
11. Modern Talking - Jet Airliner (Radio Version) (4:22)
12. Modern Talking - You Are Not Alone (3:42)
13. Modern Talking - China In Her Eyes (Vocal Version) (3:46)
14. Blue System - Love Suite (3:16)
15. Blue System - Magic Symphony (3:36)
16. Modern Talking - Win The Race (3:36)
17. Modern Talking - TV Makes The Superstar (Radio Edit) (3:45)
18. Modern Talking - Juliet (3:38)
19. Blue System - Deja Vu (Radio Mix) (3:41)
20. Modern Talking - Space Mix '98 (4:32)

[spoiler=Log.EAC/AUDIOCHECKER]
Exact Audio Copy V0.99 prebeta 5 from 4. May 2009

Отчёт EAC об извлечении, выполненном 28. октября 2010, 23:20

Various / Das Nummer 1 Album!

Дисковод: TSSTcorpDVD-ROM SH-D162C Adapter: 1 ID: 1

Режим чтения : Достоверность
Использование точного потока : Да
Отключение кэша аудио : Да
Использование указателей C2 : Нет

Коррекция смещения при чтении : 6
Способность читать области Lead-in и Lead-out : Нет
Заполнение пропущенных сэмплов тишиной : Да
Удаление блоков с тишиной в начале и конце : Нет
При вычислениях CRC использовались нулевые сэмплы : Да
Интерфейс : Встроенный Win32-интерфейс для Win NT/2000

Выходной формат : Внутренние WAV-операции
Формат сэмплов : 44.100 Гц; 16 бит; стерео

TOC извлечённого CD

Трек | Старт | Длительность | Начальный сектор | Конечный сектор
---------------------------------------------------------------------
1 | 0:00.00 | 3:50.56 | 0 | 17305
2 | 3:50.56 | 3:43.24 | 17306 | 34054
3 | 7:34.05 | 3:45.33 | 34055 | 50962
4 | 11:19.38 | 3:30.16 | 50963 | 66728
5 | 14:49.54 | 3:16.14 | 66729 | 81442
6 | 18:05.68 | 3:39.31 | 81443 | 97898
7 | 21:45.24 | 3:48.15 | 97899 | 115013
8 | 25:33.39 | 3:17.35 | 115014 | 129823
9 | 28:50.74 | 3:33.13 | 129824 | 145811
10 | 32:24.12 | 3:26.30 | 145812 | 161291
11 | 35:50.42 | 4:21.67 | 161292 | 180933
12 | 40:12.34 | 3:41.44 | 180934 | 197552
13 | 43:54.03 | 3:45.68 | 197553 | 214495
14 | 47:39.71 | 3:15.39 | 214496 | 229159
15 | 50:55.35 | 3:36.05 | 229160 | 245364
16 | 54:31.40 | 3:36.19 | 245365 | 261583
17 | 58:07.59 | 3:44.63 | 261584 | 278446
18 | 61:52.47 | 3:37.73 | 278447 | 294794
19 | 65:30.45 | 3:41.06 | 294795 | 311375
20 | 69:11.51 | 4:31.47 | 311376 | 331747

Характеристики диапазона извлечения и сообщения об ошибках

Выбранный диапазон

Имя файла Q:\Temp\2010.Modern Talking Blue System - Das Nummer 1 Album!\Modern Talking Blue System - Das Nummer 1 Album!.wav

Пиковый уровень 100.0 %
Качество диапазона 100.0 %
CRC теста 7F10F566
CRC копии 7F10F566
Копирование... OK

Ошибок не произошло

AccurateRip: сводка

Трек 1 нет в базе данных
Трек 2 нет в базе данных
Трек 3 нет в базе данных
Трек 4 нет в базе данных
Трек 5 нет в базе данных
Трек 6 нет в базе данных
Трек 7 нет в базе данных
Трек 8 нет в базе данных
Трек 9 нет в базе данных
Трек 10 нет в базе данных
Трек 11 нет в базе данных
Трек 12 нет в базе данных
Трек 13 нет в базе данных
Трек 14 нет в базе данных
Трек 15 нет в базе данных
Трек 16 нет в базе данных
Трек 17 нет в базе данных
Трек 18 нет в базе данных
Трек 19 нет в базе данных
Трек 20 нет в базе данных

Ни одного трека нет в базе AccurateRip

Конец отчёта
AUDIOCHECKER v2.0 beta (build 457) - by Dester - http://s002.radikal.ru/i200/1009/6a/61f482df2b62.gif
Похожие файлы
Загрузка / Обновление
Категория Музыка / Мультимедиа RSS лента
Добавлен (1 год, 3 месяца назад)
Просмотров 88 раз (a)
Взят 0 раз (a)
Файлы 9, 559.68 MB (586 869 667 байт)
Раздал ViKa  (Искать торренты)
Участники
Скачивают (качают): 0 (2), Завершено: 0 (0)
Просматривают

« Edenian - Rise Of The Nephilim [2013, Doom, Gothic Metal, MP3] -†- ¿? -†- Сборник - Три века русского романса 1807-1831. Не искушай меня без нужды [2006, Романсы, MP3] »

:: Список Комментариев
Нет комментариев.

 Нет комментариев

Счетчики
Рейтинг@Mail.ru Яндекс.Метрика Счетчик PR-CY.Rank

Посетители
Новый пользователь:
juliofranco
Регистрация сегодня:
Нет данных для показа
Активность сегодня:
sorogan, zawer12, CUBEPKO, Bozzio, Vladimir72s, mikhail1957-331017
 
.:HitMuzik.ru © Tesla v. Pearl (V):.
Страничка сформирована за 0.684 секунд.