Привет, Гость
 

Войти на сайт
Регистрация
Восстановить Пароль

Наша группа в ВК
 


Правообладателям
 
Для удаления авторских файлов, пишите по адреcу: abuse@hitmuzik.ru

Связанные раздачи
 
Загрузка / Обновление

:: Детали раздачи
Раздача является мультитрекерной — учтите, количество раздающих не будет совпадать с количеством участников на сайте (скачивание на клиентской стороне зависит от настроек µTorrent клиент программы, настройки -> Включить DHT, Обмен пирами и Поиск лок-х пиров).
Если висит надпись, пиры по нулям - не бойтесь, возможность скачать повторно раздачу - есть. Попробуйте, в случае отказа - прокоментируйте или нажмите на "Позвать скачавших".

Parov Stelar - The Princess (2012) [FLAC|Lossless]

Скачать Magnet-ссылка (альтернативная ссылка для скачивания файла)
Теги electro swing, broken beat, nu jazz, nu soul, 2012
Описание Parov Stelar - The Princess (2012)
https://b.radikal.ru/b16/1811/e4/8aaa48a90045.jpg Год: 2012
Жанр: Electro Swing, Broken Beat, Nu Jazz, Nu Soul
Продолжительность: 01:54:52

Кодек: FLAC
Битрейт: Lossless

Треклист:
CD1 - The Princess:
01. Milla's Dream (3:44)
02. All Night (2:47)
03. Nobody's Fool (3:08)
04. The Princess (3:07)
05. Silent Shuffle (feat. Jerry Di Monza) (3:34)
06. This Game (feat. Anduze) (3:08)
07. You Got Me There (4:11)
08. Dust In The Summer Rain (feat. Lilja Bloom) (3:38)
09. Requiem For Annie (1:11)
10. With You (feat. Lilja Bloom) (3:20)
11. The Beach (3:57)
12. Song For The Crickets (5:32)
13. Beautiful Morning (3:23)
14. The Fog (feat. Jerry Di Monza) (2:57)
15. True Romance Part 2 (feat. Lilja Bloom) (2:47)

CD2 - The Princess: The Vinyl Collection 2010-2012:
01. Jimmy's Gang (5:27)
02. Sally's Dance (feat. Cleo Panther) (3:46)
03. Booty Swing (3:18)
04. Baska Brother (5:29)
05. The Phantom (1930 Version) (4:34)
06. The Snake (5:32)
07. Wanna Fete (5:30)
08. Oh Yeah (3:47)
09. The Vamp (feat. Max The Sax) (5:22)
10. The Paris Swing Box (5:23)
11. All Night (Extended Club Version) (4:23)
12. A Song For You (feat. Jerry Di Monza) (5:47)
13. Jimmy's Gang (Enzo Siffredi Remix) (6:10)
Дополнительная информация:

Код: выделить все
X Lossless Decoder version 20120120 (139.0)

XLD extraction logfile from 2012-04-20 11:43:32 +0000

Parov Stelar / The Princess

Used drive : HL-DT-ST DVDRW  GS23N (revision SB03)

Ripper mode             : XLD Secure Ripper
Disable audio cache     : OK for the drive with a cache less than 1375KiB
Make use of C2 pointers : NO
Read offset correction  : 667
Max retry count         : 100
Gap status              : Analyzed, Appended

TOC of the extracted CD
     Track |   Start  |  Length  | Start sector | End sector
    ---------------------------------------------------------
        1  | 00:00:00 | 03:44:22 |         0    |    16821
        2  | 03:44:22 | 02:46:46 |     16822    |    29317
        3  | 06:30:68 | 03:07:68 |     29318    |    43410
        4  | 09:38:61 | 03:07:09 |     43411    |    57444
        5  | 12:45:70 | 03:33:69 |     57445    |    73488
        6  | 16:19:64 | 03:07:53 |     73489    |    87566
        7  | 19:27:42 | 04:10:61 |     87567    |   106377
        8  | 23:38:28 | 03:38:15 |    106378    |   122742
        9  | 27:16:43 | 01:11:26 |    122743    |   128093
       10  | 28:27:69 | 03:20:37 |    128094    |   143130
       11  | 31:48:31 | 03:57:29 |    143131    |   160934
       12  | 35:45:60 | 05:32:11 |    160935    |   185845
       13  | 41:17:71 | 03:23:06 |    185846    |   201076
       14  | 44:41:02 | 02:56:50 |    201077    |   214326
       15  | 47:37:52 | 02:47:05 |    214327    |   226856

AccurateRip Summary
    Disc not found in AccurateRip DB.

All Tracks
    Album gain             : -6.96 dB
    Peak                   : 0.988525
    Statistics
        Read error                           : 0
        Jitter error (maybe fixed)           : 0
        Retry sector count                   : 0
        Damaged sector count                 : 0

Track 01
    Filename : /Users/AbraCadaver/Desktop/[2012] The Princess/01 - Milla's Dream.flac
    Pre-gap length : 00:02:00

    Track gain             : -5.69 dB
    Peak                   : 0.965820
    CRC32 hash (test run)  : 931463F6
    CRC32 hash             : 931463F6
    CRC32 hash (skip zero) : EA666205
    AccurateRip signature  : B262041C
        ->Track not present in AccurateRip .
    Statistics
        Read error                           : 0
        Jitter error (maybe fixed)           : 0
        Retry sector count                   : 0
        Damaged sector count                 : 0

Track 02
    Filename : /Users/AbraCadaver/Desktop/[2012] The Princess/02 - All Night.flac
    Pre-gap length : 00:01:00

    Track gain             : -7.50 dB
    Peak                   : 0.967194
    CRC32 hash (test run)  : 8F874795
    CRC32 hash             : 8F874795
    CRC32 hash (skip zero) : 220244EF
    AccurateRip signature  : 0FA3911B
        ->Track not present in AccurateRip .
    Statistics
        Read error                           : 0
        Jitter error (maybe fixed)           : 0
        Retry sector count                   : 0
        Damaged sector count                 : 0

Track 03
    Filename : /Users/AbraCadaver/Desktop/[2012] The Princess/03 - Nobody's Fool.flac
    Pre-gap length : 00:01:00

    Track gain             : -7.35 dB
    Peak                   : 0.968842
    CRC32 hash (test run)  : 3B5C2903
    CRC32 hash             : 3B5C2903
    CRC32 hash (skip zero) : 1C9925CA
    AccurateRip signature  : DF4ADF36
        ->Track not present in AccurateRip .
    Statistics
        Read error                           : 0
        Jitter error (maybe fixed)           : 0
        Retry sector count                   : 0
        Damaged sector count                 : 0

Track 04
    Filename : /Users/AbraCadaver/Desktop/[2012] The Princess/04 - The Princess.flac
    Pre-gap length : 00:01:00

    Track gain             : -8.20 dB
    Peak                   : 0.966248
    CRC32 hash (test run)  : 114FDD6F
    CRC32 hash             : 114FDD6F
    CRC32 hash (skip zero) : 0D0CDFC9
    AccurateRip signature  : F99B2759
        ->Track not present in AccurateRip .
    Statistics
        Read error                           : 0
        Jitter error (maybe fixed)           : 0
        Retry sector count                   : 0
        Damaged sector count                 : 0

Track 05
    Filename : /Users/AbraCadaver/Desktop/[2012] The Princess/05 - Silent Shuffle.flac
    Pre-gap length : 00:01:00

    Track gain             : -7.18 dB
    Peak                   : 0.965759
    CRC32 hash (test run)  : A035F129
    CRC32 hash             : A035F129
    CRC32 hash (skip zero) : 960C4040
    AccurateRip signature  : 40817CDA
        ->Track not present in AccurateRip .
    Statistics
        Read error                           : 0
        Jitter error (maybe fixed)           : 0
        Retry sector count                   : 0
        Damaged sector count                 : 0

Track 06
    Filename : /Users/AbraCadaver/Desktop/[2012] The Princess/06 - This Game.flac
    Pre-gap length : 00:01:00

    Track gain             : -8.28 dB
    Peak                   : 0.967743
    CRC32 hash (test run)  : DB81ABD5
    CRC32 hash             : DB81ABD5
    CRC32 hash (skip zero) : CE452576
    AccurateRip signature  : 1740C506
        ->Track not present in AccurateRip .
    Statistics
        Read error                           : 0
        Jitter error (maybe fixed)           : 0
        Retry sector count                   : 0
        Damaged sector count                 : 0

Track 07
    Filename : /Users/AbraCadaver/Desktop/[2012] The Princess/07 - You Got Me There.flac
    Pre-gap length : 00:01:00

    Track gain             : -7.11 dB
    Peak                   : 0.967255
    CRC32 hash (test run)  : B8C5810D
    CRC32 hash             : B8C5810D
    CRC32 hash (skip zero) : D0F60E28
    AccurateRip signature  : 4B17385C
        ->Track not present in AccurateRip .
    Statistics
        Read error                           : 0
        Jitter error (maybe fixed)           : 0
        Retry sector count                   : 0
        Damaged sector count                 : 0

Track 08
    Filename : /Users/AbraCadaver/Desktop/[2012] The Princess/08 - Dust in the Summer Rain.flac
    Pre-gap length : 00:01:00

    Track gain             : -6.31 dB
    Peak                   : 0.967377
    CRC32 hash (test run)  : 97F02D2C
    CRC32 hash             : 97F02D2C
    CRC32 hash (skip zero) : 20F76475
    AccurateRip signature  : DEE10092
        ->Track not present in AccurateRip .
    Statistics
        Read error                           : 0
        Jitter error (maybe fixed)           : 0
        Retry sector count                   : 0
        Damaged sector count                 : 0

Track 09
    Filename : /Users/AbraCadaver/Desktop/[2012] The Princess/09 - Requiem for Annie.flac
    Pre-gap length : 00:01:00

    Track gain             : -6.46 dB
    Peak                   : 0.965912
    CRC32 hash (test run)  : CA7080C4
    CRC32 hash             : CA7080C4
    CRC32 hash (skip zero) : 85AC78E6
    AccurateRip signature  : 18596E2B
        ->Track not present in AccurateRip .
    Statistics
        Read error                           : 0
        Jitter error (maybe fixed)           : 0
        Retry sector count                   : 0
        Damaged sector count                 : 0

Track 10
    Filename : /Users/AbraCadaver/Desktop/[2012] The Princess/10 - With You.flac
    Pre-gap length : 00:01:00

    Track gain             : -8.07 dB
    Peak                   : 0.988525
    CRC32 hash (test run)  : 1DE2D727
    CRC32 hash             : 1DE2D727
    CRC32 hash (skip zero) : BCCEB7FF
    AccurateRip signature  : 863C47A1
        ->Track not present in AccurateRip .
    Statistics
        Read error                           : 0
        Jitter error (maybe fixed)           : 0
        Retry sector count                   : 0
        Damaged sector count                 : 0

Track 11
    Filename : /Users/AbraCadaver/Desktop/[2012] The Princess/11 - The Beach.flac
    Pre-gap length : 00:01:00

    Track gain             : -3.92 dB
    Peak                   : 0.967041
    CRC32 hash (test run)  : D9175849
    CRC32 hash             : D9175849
    CRC32 hash (skip zero) : 61F41681
    AccurateRip signature  : 310131BA
        ->Track not present in AccurateRip .
    Statistics
        Read error                           : 0
        Jitter error (maybe fixed)           : 0
        Retry sector count                   : 0
        Damaged sector count                 : 0

Track 12
    Filename : /Users/AbraCadaver/Desktop/[2012] The Princess/12 - Song for the Crickets.flac
    Pre-gap length : 00:01:00

    Track gain             : -4.66 dB
    Peak                   : 0.967133
    CRC32 hash (test run)  : F89B2FA2
    CRC32 hash             : F89B2FA2
    CRC32 hash (skip zero) : 98AA4A90
    AccurateRip signature  : 02D4C95A
        ->Track not present in AccurateRip .
    Statistics
        Read error                           : 0
        Jitter error (maybe fixed)           : 0
        Retry sector count                   : 0
        Damaged sector count                 : 0

Track 13
    Filename : /Users/AbraCadaver/Desktop/[2012] The Princess/13 - Beautiful Morning.flac
    Pre-gap length : 00:01:00

    Track gain             : -4.50 dB
    Peak                   : 0.966309
    CRC32 hash (test run)  : FD24BB11
    CRC32 hash             : FD24BB11
    CRC32 hash (skip zero) : E62AE463
    AccurateRip signature  : 8B598E59
        ->Track not present in AccurateRip .
    Statistics
        Read error                           : 0
        Jitter error (maybe fixed)           : 0
        Retry sector count                   : 0
        Damaged sector count                 : 0

Track 14
    Filename : /Users/AbraCadaver/Desktop/[2012] The Princess/14 - The Fog.flac
    Pre-gap length : 00:01:00

    Track gain             : -3.60 dB
    Peak                   : 0.965820
    CRC32 hash (test run)  : 0B74E681
    CRC32 hash             : 0B74E681
    CRC32 hash (skip zero) : 4006E024
    AccurateRip signature  : 9D11DF11
        ->Track not present in AccurateRip .
    Statistics
        Read error                           : 0
        Jitter error (maybe fixed)           : 0
        Retry sector count                   : 0
        Damaged sector count                 : 0

Track 15
    Filename : /Users/AbraCadaver/Desktop/[2012] The Princess/15 - True Romance Part 2 (Bonus Track).flac
    Pre-gap length : 00:01:00

    Track gain             : -7.18 dB
    Peak                   : 0.965942
    CRC32 hash (test run)  : 50C685E4
    CRC32 hash             : 50C685E4
    CRC32 hash (skip zero) : 76B32F44
    AccurateRip signature  : CF8E8665
        ->Track not present in AccurateRip .
    Statistics
        Read error                           : 0
        Jitter error (maybe fixed)           : 0
        Retry sector count                   : 0
        Damaged sector count                 : 0

No errors occurred

End of status report
Категория Музыка / Мультимедиа RSS лента
Добавлен (3 дня назад)
Просмотров 0 раз (a)
Взят 0 раз (a)
Файлы 38, 715.63 MB (750 390 026 байт)
Раздал ViKa  (Искать торренты)
Участники
Завершено: 0 (0)
Просматривают

« E.S.T. (Esbjörn Svensson Trio, Esbjorn Svensson) - Discography (1993-2016) [FLAC|Lossless|tracks+.cue, tracks] -†- ¿? -†- Female Tribute to Tom Waits Vol.1-3 (2008) 6CD [MP3|224 kbps] »

:: Список Комментариев
Нет комментариев.

 Нет комментариев
Самые активные релизы за неделю
 
Музыка / Мультимедиа
Народные Золотые Хиты (2002) 2CD [FLAC|Lossless|tracks + .cue]
  •  Народные Золотые Хиты (2002) 2CD [FLAC|Lossless|tracks + .cue]
  • Валерий Леонтьев - Я вернусь (WEB) ( Эстрада / 2019 )
  •  Memory Motel: Inside the World of Keith Richards (2019) [FLAC|Lossless|tracks + .cue]
  • Santaren   The Lovin' Girls - Love Killer (1978) LP [MP3|320 Kbps]
  • ЯАVЬ - Явь (WEB) ( Поп / 2019 )
  • Olivia Newton-John - The Definitive Collection (2002) [FLAC|Lossless|image + .cue]
  • Whitney Houston - Hit Collection (2000) [FLAC|Lossless|tracks + .cue]
  •  Rock   Metal Collection от ALEXnROCK часть 7 (2018) [MP3|320 Kbps]
  • Flamborough Head - Discography / Rock
  • Cerrone - 26 Albums (1976-2016) Collection [MP3|320 Kbps]
  • Владимир Высоцкий - VA №4 (Сборник песен) (1985) Мелодия [FLAC 2.0|96/24|image+.cue|Tape-Rip]
  • V.A. - Vintage Cafe: Lounge   Jazz Blend Vol. 11 (2017) [FLAC|Lossless|WEB-DL|tracks]

Счетчики
 
Рейтинг@Mail.ru Яндекс.Метрика Счетчик PR-CY.Rank

Поделится ссылкой
 


.:HitMuzik.ru :: Tesla v. Pearl (V7):.
Страничка сформирована за 0.074 секунд.